دستگاه شنود سیمکارتی فول: دوربیندار فوق العاده حرفه ای

۱۹۹,۰۰۰ تومان

دستگاه شنود سیمکارتی دوربیندار فول X009 مجهز به ردیاب چی پی اس

عملکرد دستگاه شنود دوربیندار به این گونه است که پس از تماس با سیمکارتی که در آن قرار می دهید به طور خودکار و بدون هیچ نور و یا صدایی فعال شده و صداي محيط را به گوش شما مي رساند ضمن آنکه با ارسال پیامک می توانید آن را در حالت فیلمبرداری یا عکاسی یا ضبط صدا قرار دهید.

یعنی یک سیمکارت درون این دستگاه قرار دهید:

هر بار که به آن زنگ بزنید خودبخود فعال شده و صدای محیط را می توانید بشنوید.

با ارسال پیامک عکس میگیرد.

با ارسال پیامک فیلم می گیرد.

با ارسال پیامک صدای محیط را ضبط میکند.

 

با یک بار شارژ 2 تا 3 ساعت به طور مداوم کار میکند و 2 تا 3 روز استندبای می ماند.

کیفیت عکس و فیلم خوب و قابل قبول می باشد.

ابعاد دستگاه شنود سیمکارتی فول X009:

1.4*4.5*5.5 سانتیمتر ( اندازه یک قوطی کبریت)

دوربین این دستگاه دارای سنسور CMOS است.

باطری: پلیمر 450mah

زمان استندبای:

در حالت استفاده: 2 تا 3 ساعت مداوم

در حالت استندبای: 2 تا 3 روز

      General
      Format : AVI
      Format/Info : Audio Video Interleave
      File size : 7.19 MiB
      Duration : 1mn 22s
      Overall bit rate : 735 Kbps
   Video #0
      ID : 0
      Format : JPEG
      Codec ID : MJPG
      Duration : 1mn 22s
      Bit rate : 603 Kbps
      Width : 480 pixels
      Height : 320 pixels
      Display aspect ratio : 3:2
      Frame rate : 3.737 fps
      Color space : YUV
      Chroma subsampling : 4:2:0
      Bit depth : 8 bits
      Compression mode : Lossy
      Bits/(Pixel*Frame) : 1.051
      Stream size : 5.91 MiB (82%)
   Audio #1
      ID : 1
      Format : PCM
      Format settings, Endianness : Little
      Format settings, Sign : Signed
      Codec ID : 1
      Duration : 1mn 22s
      Bit rate mode : Constant
      Bit rate : 128 Kbps
      Channel(s) : 1 channel
      Sampling rate : 8 000 Hz
      Bit depth : 16 bits
      Stream size : 1.25 MiB (17%)
      Interleave, duration : 510 ms (1.91 video frames 

 نمونه فیلم دستگاه شنود سیمکارتی فول:

کیفیت فیلم: 480*320

5 فریم بر ثانیه

 

 

نمونه عکس دستگاه شنود سیمکارتی دوربین دار فول:

کیفیت عکس: 480*640

نمونه فیلم دستگاه شنود سیمکارتی فول دوربین دار

 

  چرا مشتری باید از بازار اینترنتی گیلار خرید کند؟

چون با خرید از ما از مشاوره دائمی درباره کالا و یا محصولی که خریده اید برخوردار می شوید و همیشه ما را در کنار خود خواهید یافت. ما همیشه در کنار مشتریان خود هستیم.

 

چرا مشتریان از بازار اینترنتی گیلار خرید می کنند؟

زیرا بازار اینترنتی گیلار:

دارای نماد اعتماد الکترونیک می باشد (این نماد به فروشگاههایی اعطا می شود که دارای مکان ثابت هستند)

اجناس اصل و با گارانتی را به مشتریان خود ارائه می کند.

پس از فروش نیز با مشتریان خود همراه بوده و به تمامی سوالات و مشکلات آنان پاسخ می دهد.

طرف قرارداد با پست بوده و مشتریان می توانند قبل از پرداخت وجه کالای خود را تحویل گرفته و بعد وجه آن را به مأمور پست بپردازند.

این فروشگاه از سال 1385 مشغول فعالیت در اینترنت بوده و از نخستین فروشگاههای اینترنتی ایران است.

چون ما پس از فروش تا هر زمانی که شما بخواهید با شما خواهیم بود و بهترین مشاور شما درباره کالایی که خریده اید هستیم.

 چون ما کالای با کیفیت و قیمت مناسب در اختیار مشتریان خود قرار می دهیم.

چون ما بهترین ها را در فروشگاه خود عرضه می کنیم.

Additional options total:
Order total:

مقدار:

توضیحات محصول

دستگاه شنود سیمکارتی دوربیندار فول X009 مجهز به دوربین مخفی

برای شنود مخفی صدای مکان مورد نظر خود فقط یک  سیمکارت در دستگاه X009 بگذارید و با تماس با آن صدای محیط را بشنوید بدون آنکه کسی بفهمد.

دستگاه شنود حرفه ای فول با قابلیت فیلمبرداری، عکسبرداری و ضبط صدای محیط

همچنین با ارسال پیامک می توانید از محیطی که دستگاه در آن قرار دارد عکس و فیلم بگیرید و یا صدای آنجا را ذخیره کنید.

 

بازار اینترنتی گیلار از وزارت صنعت، معدن و تجارت نماد اعتماد الکترونیک دریافت نموده است.

این نماد به فروشندگان معتبر اینترنتی که دارای آدرس فروشگاه و تلفن ثابت بوده و ملزم به رعایت قوانین فروش اینترنتی هستند اعطا می شود.

برای مشاهده نماد اعتماد الکترونیکی بازار اینترنتی گیلار می توانید روی عکس نماد اعتماد زیر کلیک کرده و پس از باز شدن صفحه مورد نظر روی نماد اعتماد الکترونیکی کلیک فرمایید تا از صحت آن نیز مطمئن شوید.


 شنود سیمکارتی فول

شنود سیم کارتی دوربیندار